igor (ico) wrote,
igor
ico

глядя в зомбоящик



UHD нам говорит, что это уже сухонький морщинистый дедушка...

Ну и чтоб два раза не вставать, поток:
Input #0, mpegts, from 'RTL_UHD':
  Duration: -, start: -, bitrate: 22857 kb/s
  Program 12400
  Program 12410
    Stream #0:0[0x2a](deu): Subtitle: dvb_teletext ([6][0][0][0] / 0x0006)
    Stream #0:1[0xaff]: Video: hevc (Main 10) ([36][0][0][0] / 0x0024),
      yuv420p10le(pc, bt2020nc/bt2020/bt2020-10), 
      3840x2160 [SAR 1:1 DAR 16:9],
      50 fps, 50 tbr, 90k tbn, 50 tbc
    Stream #0:2[0xb00](deu): Audio: eac3 ([6][0][0][0] / 0x0006), 48000 Hz,
      stereo, fltp, 224 kb/s (clean effects)
    Stream #0:3[0xb05]: Unknown: none ([5][0][0][0] / 0x0005)
    Stream #0:4[0xb06]: Unknown: none ([11][0][0][0] / 0x000B)
    Stream #0:5[0xb07]: Unknown: none ([12][0][0][0] / 0x000C)
Tags: pop, tv
Subscribe
  • Post a new comment

    Error

    default userpic

    Your reply will be screened

    Your IP address will be recorded 

    When you submit the form an invisible reCAPTCHA check will be performed.
    You must follow the Privacy Policy and Google Terms of use.
  • 0 comments